Torrent crc

Torrent

Add: dezalamy30 - Date: 2020-11-29 05:45:43 - Views: 723 - Clicks: 7635

CD is a superb torrent website. pmdg 777 sp1d shared files:: pmd Torrent Results. CRC algorithms, test code, libraries and tables. Don&39;t loose heart, just give a try and you might recover it from where it got corrupt. torrent crc Il pacchetto include Word, Excel, PowerPoint, Access, Outlook, Publisher, Visio e Project. CRC error is a Windows error, or specifically, an HDD error, that says it failed to read the data on the drive. 34 by BenchmarkSims Use the Download Button on the right to download the torrent files for all of these installers, to be used with a torrent client software torrent crc like BitTorrent or Utorrent, for fastest torrent crc download speeds.

Copy CRC B5026A74 Copy OK crc Track 4 Filename F:&92;Music&92;1 TORRENTS&92;Next&92;FLAC&92;Next - Rated Next&92;04 - My Place (Interlude). The game is built on a version of the developer&39;s "Invictus torrent crc Engine. The Windows 7 SP1 RTM update package has been leaked for download. The client connects to the tracker(s) or seeds specified in the torrent file, from which it receives a list of seeds and peers currently transferring pieces of the file(s). Normally, this happens with large torrents that are made up torrent crc of a lot of smaller files, such as a torrent that contains a lot of. Treads are the flat. The CRC Concise Encyclopedia of Mathematics is a compendium of mathematical definitions, formulas,figures, tabulations, torrent crc and references. Is the problem with the installation or with the torrent?

The goal of the program is to use standard values when creating zips to create identical files over multiple systems. 1 CRC Press - Mechanical Engineering Handbook - Robotics. Vehicles are upgradeable and customizable. Risers & Treads If you are building a new standard residential stairway (not a spiral), each step (or riser) shall not be more than 7 ¾ inches high.

Either the CRC is wrong, your system wrote a bad file to disk and you need to redownload it, or the torrent was bad. Included Denuvo Cracks! torrent: microsoft. If the message "pass - CRC OK" appears on the screen, the disk has been successfully identified. Tech support scams are an industry-wide issue where torrent crc scammers trick you into paying for unnecessary technical support crc services. Users find a torrent of interest on a torrent index site or by using a search engine built into the client, download it, torrent crc and open it with a BitTorrent client. Office crack ti consente di gestire il tuo lavoro, l’ufficio e gli impegni scolastici con una facilità disarmante. Cyclic Redundancy Check (CRC) is basically a data verification torrent crc method that computer uses to check the accuracy of data on the disks (hard disk drive, optical disks such as CD, DVD etc.

Did anyone else get CRC mismatches on torrent crc RDR2 torrent crc Fitgirl repack? txt: 01-Apr- 15:24: 217. Sorry we couldn&39;t be helpful. Since fitgirl has a site where she directly distributes torrents, it&39;s probably the second option.

Help us improve this article with your feedback. 003 bad CRC ac231f7c (should be 728b2b21) extracting: FB Alpha v0. The PMDG crack can&39;t work because the installer need an internet connection to. Download the corresponding version of cRARk. TorrentZip is a replacement for MameZip. These staff are located either at the Chesapeake Research Consortium’s office on the SERC campus in Edgewater, MD or are embedded within. wav Peak level 98. In the CMD window, locate.

If you are lucky, the error is logical one and is very much torrent crc correctable. This simulation-style sports car racer features both on- and off-road tracks, in six environments. This product stage helps you to print the maps.

download 107 Files download 17 Original. (Make the CRC the same as the original DLL, to prevent CRC checking if. You can help protect yourself from scammers by verifying that the contact is a Microsoft Agent or Microsoft Employee and that the phone number is an official Microsoft global customer service number. torrent crc 004 bad CRC bee11af0 (should be 1e6494c3) torrent crc I also did a sha1sum on those files; they don&39;t match what the checksum specified:. パッケージ制作者の皆さん(順不同、敬称略): はろるど, たあぼう, portion, Black, Zer0. This is a modified version of the CRC algorithms by Lammert Bies.

CRC Concise Encyclopedia of Mathematics/ 01-Apr- 15:23-Cryptography/. 7 % Track quality 100. Authored by the crc torrent crc creator of MathWorld, the third edition of this book has been extensively expanded, revised, and updated into a three-volume set. wav Peak level 97. The Arch reader can only run torrent crc with map files. Torrents use peer-to-peer sharing from multiple sources of verified file copies among the BMS community to maximize download torrent crc speed & availability withou.

I doubt that explaination when it comes to the torrent crc latest 1. 0 % Test CRC 11014E0A Copy. To install a language torrent crc pack Cabinet file, here’s the guide on how to install language pack in torrent crc Windows 7, and guide to torrent crc change display language on Windows 7 user interface and welcome screen. A D on Top 10 best torrent sites for TV series ( UPDATED) Kickass on KickAssTorrents alternative () – Top 5 sites similar to KickAss Torrents; nitesh patel on Download crc Torrents With IDM Download Manager (Top 5 Ways ) prabin shrestha on Download Torrents With IDM Download Manager (Top 5 Ways ). extracting: FB Alpha v0. TORRENT download. However, it was still easily viewable and it was only for one second.

Access-restricted-item true Addeddate:42:08 Bookplateleaf 0004 Boxid IA146522 Boxid_2 CH117101 Camera Canon EOS 5D Mark II Donor allen_countydonation. hi guys, heres my problem:when i start downloading some files, bittorrent works right. 7-zipのCRCでSHA-256が確認できます。一連のファイルを全て選択してCRC -> SHA-256を選択してください。だいたい上下5ケタの照合で十分なはずです。 パッケージ. Artificial Intelligence causes computer controlled drivers to react emotionally, with fear or vengeance. 0 % Test CRC EFC9524E Copy CRC EFC9524E Copy OK Track 5 Filename F:&92;Music&92;1 TORRENTS&92;Next&92;FLAC&92;Next - Rated Next&92;05 - Cozy. In this paper we used two platforms (ION TORRENT AND ILLUMINA) to assess single nucleotides variants in colorectal cancer (CRC) specimens. The first service pack for Windows 7 and Windows Server R2 has been finalized and released to manufacturing (RTM).

Free Full Steam, Origin & Uplay Games! Posted by 1 month ago. Press the "Win + R" shortcut and enter "cmd" to quickly open the CMD window. µT merely relays the message to you. torrent The extracted language packs has the file name of lp.

Regardless of the torrent crc or the tracker I&39;ll always end up with at least 2-3 files that fail their CRC check crc and refuse to expand using WinRar or WinZip. I can Check the CD integrity crc (zip, disque,etc) Check the integrity of a network transfer (local network, ftp, e-mail. 0 % Extraction speed 4. Cracked by SKIDROW, CODEX, PLAZA, CPY and more!

Test CRC 30C3C1E3 Copy CRC 30C3C1E3 Track not present in AccurateRip database Copy OK Track 4 Filename H:&92;Torrents&92;Media&92;Nothing - The Great Dismal Relapse Records RR7461 (FLAC)&92;04 - Catch a Fade. ) CRC detects accidental changes to raw data residing in the storage media. cd free torrent website to download free movies, games and more? 9 BitTorrent client and have no prioblems with it!

ArcGIS Torrent offers you a structure to create maps and geographic data. Well then this Torrent. Download CRC for free. This edition is freeware to download. I was prevously using the Rufus 0.

On the other rar downloads with the same CRC errors, I didn&39;t see any glitches or other problems. maybe a little slow, but thats not important right now. After succesfully finishing a rather large download torrent crc (42,2GB), I attempted the installation of the downloaded software. 9 % Test CRC 713443FB Copy CRC 713443FB Track not present in AccurateRip database. 9 X Track quality 99. Dimensional Tolerances The largest tread depth or riser height within any stairway shall not exceed torrent crc the smallest by more than 3/8 inch. level 2 grandoz039.

The Torrent site provides torrent files of movies, Latest TV episodes, eBooks, PC Games, torrent crc XBox Games, Software, etc. CRC features multiplayer action and extensive set-up options which are an integral part of the game, along with realistic real-time damage and stunning graphical effects including High Dynamic torrent crc Range imaging, bump mapping, dynamic environmental reflections and motion blur and dynamic and automatic image contrast balancing. CRC errors are reported by the hard drive (meaning it couldn&39;t read the data successfully), not by µTorrent. Methods CRC specimens (n = 13) collected from 6 CRC torrent crc (cancer and matched normal) patients were used to establish the mutational crc profile using ION TORRENT torrent crc AND ILLUMINA sequencing platforms. I Just torrent crc yesterday downloaded it and started to run it. torrent crc Looking for Torrent.

Download TorrentZip for free. CRC error is a Windows error, or specifically, an HDD error, that says it failed to read the data on the drive. cd proxy/mirror sites list is gonna solve all your problems. some of them wont torrent crc even start being checked (. the problem is when i reopen bittorrent the day after i started and al my unfinished files are being checked.

It now contains nearly 12,000 entries. Torrent-Download Links. It supports more algorithms and has been ported to several languages. Now you need to set a new password to torrent crc re-login the RAR file. Summary: While Data error (cyclic redundancy check) could really mean, torrent crc its bye bye for your partially complete torrent download, its always not true.

No matter, it is of governments, crossways a torrent crc communal and open on the web. After a while the installation sadly caused itself as well as Windows Explorer to become unresponsive, causing me to forcefully restart my computer. Community Texts. In addition to the crc CRC Executive Director, the CRC also comprises numerous other staff who coordinate and assist the important work of both the CRC itself and the entire Chesapeake Bay Program partnership. As per tradition, Microsoft has also released Windows 7 with SP1 integrated ISO image for OEM partners, MSDN and TechNet subscribers and other advanced users who need not want to install SP1 update. Mathematics Ebooks Mega Collection_torrent. 8 % Track quality 100.

Torrent crc

email: hexele@gmail.com - phone:(977) 578-3490 x 1566

Grand bleu bluray torrent - オタ女子を脱がしてみたら爆乳ドスケベボディでした torrent

-> Jr idol torrent
-> Eyan-030 hd torrent

Torrent crc - Super movie ball


Sitemap 1

激堕ち変態未亡人 入信 torrent - チルノと仮想現実 torrent